Details for this torrent 

Indio en Concierto-La Plata 2008|MKV-AUDIO DTS|
Type:
Video > Music videos
Files:
1
Size:
6.19 GiB (6650659681 Bytes)
Uploaded:
2019-05-09 23:01:42 GMT
By:
Anonymous
Seeders:
2
Leechers:
0
Comments
0  

Info Hash:
E560E97424B9AFBFE3F1E288C2311F634DA75B03




(Problems with magnets links are fixed by upgrading your torrent client!)
Format                      : Matroska
Format version              : Version 4 / Version 2
File size                   : 6.19 GiB
Duration                    : 1 h 53 min
Overall bit rate mode       : Variable
Overall bit rate            : 7 832 kb/s
Encoded date                : UTC 2016-01-19 17:20:01
Writing application         : mkvmerge v7.6.0 ('Garden of Dreams') 64bit built on Feb  8 2015 13:04:34
Writing library             : libebml v1.3.1 + libmatroska v1.4.2

Video
ID                          : 1
Format                      : MPEG Video
Format version              : Version 2
Format profile              : [email protected]
Format settings             : CustomMatrix / BVOP
Format settings, BVOP       : Yes
Format settings, Matrix     : Custom
Format settings, GOP        : Variable
Codec ID                    : V_MPEG2
Codec ID/Info               : MPEG 1 or 2 Video
Duration                    : 1 h 53 min
Bit rate mode               : Variable
Bit rate                    : 5 996 kb/s
Maximum bit rate            : 8 000 kb/s
Width                       : 720 pixels
Height                      : 480 pixels
Display aspect ratio        : 16:9
Frame rate mode             : Variable
Frame rate                  : 23.976 FPS
Standard                    : NTSC
Color space                 : YUV
Chroma subsampling          : 4:2:0
Bit depth                   : 8 bits
Scan type                   : Progressive
Scan order                  : 2:3 Pulldown
Compression mode            : Lossy
Bits/(Pixel*Frame)          : 0.724
Time code of first frame    : 00:00:00;00
Time code source            : Group of pictures header
Stream size                 : 4.74 GiB (77%)
Default                     : Yes
Forced                      : No
Color primaries             : BT.601 NTSC
Transfer characteristics    : BT.601
Matrix coefficients         : BT.601

Audio #1
ID                          : 2
Format                      : DTS
Format/Info                 : Digital Theater Systems
Codec ID                    : A_DTS
Duration                    : 1 h 53 min
Bit rate mode               : Constant
Bit rate                    : 1 510 kb/s
Channel(s)                  : 6 channels
Channel positions           : Front: L C R, Side: L R, LFE
Sampling rate               : 48.0 kHz
Frame rate                  : 93.750 FPS (512 SPF)
Bit depth                   : 24 bits
Compression mode            : Lossy
Stream size                 : 1.19 GiB (19%)
Language                    : Spanish
Default                     : Yes
Forced                      : No

Audio #2
ID                          : 3
Format                      : AC-3
Format/Info                 : Audio Coding 3
Codec ID                    : A_AC3
Duration                    : 1 h 53 min
Bit rate mode               : Constant
Bit rate                    : 320 kb/s
Channel(s)                  : 2 channels
Channel positions           : Front: L R
Sampling rate               : 48.0 kHz
Frame rate                  : 31.250 FPS (1536 SPF)
Bit depth                   : 16 bits
Compression mode            : Lossy
Stream size                 : 259 MiB (4%)
Language                    : Spanish
Service kind                : Complete Main
Default                     : No
Forced                      : No